Iron Man 2 (2010)

Posted on novembre 22, 2010

0


Iron Man 2 (2010)
picture 
 
 
Iron Man 2 (2010) DVDRip XviD-MAX

Format : AVI
Format/Info : Audio Video Interleave
Format profile : OpenDML
File size :
1.35 GiB
Duration : 1h
59mn
Overall bit rate :
1 611 Kbps
Writing application : VirtualDubMod
1.5.10.2 (build 2542/release)
Writing library : VirtualDubMod build
2542/release
Original source form : MAX TORRENTZ
Copyright : SIGISMUNT

Video
ID :
0
Format : MPEG-
4 Visual
Format profile : AdvancedSimple@L
5
Format settings, BVOP : Yes
Format settings, QPel : No
Format settings, GMC : No warppoints
Format settings, Matrix : Default (H.
263)
Codec ID : XVID
Codec ID/Hint : XviD
Duration : 1h
59mn
Bit rate :
1 157 Kbps
Width :
704 pixels
Height :
304 pixels
Display aspect ratio : 2.35:1
Frame rate :
25.000 fps
Resolution :
24 bits
Colorimetry : 4:2:0
Scan type : Progressive
Bits/(Pixel*Frame) :
0.216
Stream size :
991 MiB (72%)
Writing library : XviD
1.3.0.dev55

Audio
ID :
1
Format : AC-
3
Format/Info : Audio Coding
3
Codec ID : 2000
Duration : 1h
59mn
Bit rate mode : Constant
Bit rate :
448 Kbps
Channel(s) :
6 channels
Channel positions : Front: L C R, Surround: L R, LFE
Sampling rate :
48.0 KHz
Stream size :
384 MiB (28%)
Alignment : Aligned on interleaves
Interleave, duration :
64 ms (1.60 video frames)
Interleave, preload duration :
192 ms

http://www.imdb.com/title/tt1228705/


Screens:

http://www.postimg.com/image/21000/20921.jpg


http://www.postimg.com/image/21000/20922.jpg


http://www.postimg.com/image/21000/20923.jpg


http://www.postimg.com/image/21000/20924.jpg


http://www.postimg.com/image/21000/20925.jpg


ScreenCaps:

http://www.postimg.com/image/21000/20926.jpg

Téléchargez ce torrent

Posted in: Uncategorized