Machete (2010)

Posted on novembre 22, 2010

0


Machete (2010
https://i1.wp.com/moviesbase.net/wp-content/uploads/2010/09/Machete-2010-Movie-Poster.jpg 
picture 
 
Machete (2010) R5 XviD-MAX

Format : AVI
Format/Info : Audio Video Interleave
Format profile : OpenDML
File size :
1.23 GiB
Duration :
1h 40mn
Overall bit rate :
1 744 Kbps
Writing application : VirtualDubMod
1.5.10.2 (build 2542/release)
Writing library : VirtualDubMod build
2542/release
Original source form : MAX TORRENTZ
Copyright : SIGISMUNT

Video
ID :
0
Format : MPEG-
4 Visual
Format profile : AdvancedSimple@L
5
Format settings, BVOP : Yes
Format settings, QPel : No
Format settings, GMC : No warppoints
Format settings, Matrix : Custom
Codec ID : XVID
Codec ID/Hint : XviD
Duration :
1h 40mn
Bit rate :
1 550 Kbps
Width :
720 pixels
Height :
400 pixels
Display aspect ratio :
16:9
Frame rate :
25.000 fps
Resolution :
24 bits
Colorimetry :
4:2:0
Scan type : Progressive
Bits/(Pixel*Frame) :
0.215
Stream size :
1.09 GiB (89%)
Writing library : XviD
1.2.1 (UTC 2008-12-04)

Audio
ID :
1
Format : MPEG Audio
Format version : Version
1
Format profile : Layer
3
Codec ID :
55
Codec ID/Hint : MP
3
Duration :
1h 39mn
Bit rate mode : Constant
Bit rate :
192 Kbps
Channel(s) :
2 channels
Sampling rate :
48.0 KHz
Resolution :
16 bits
Stream size :
137 MiB (11%)
Alignment : Aligned on interleaves
Interleave, duration :
514 ms (12.86 video frames)
Interleave, preload duration :
216 ms
Writing library : LAME
3.98.2

Source: R
5 DVDRip+filtered Studio Line perfect synced(-100ms)+english sub
for foreign language parts

http://www.imdb.com/title/tt0985694/


Screens:

http://www.postimg.com/image/22000/21741.jpg


http://www.postimg.com/image/22000/21742.jpg


http://www.postimg.com/image/22000/21743.jpg


http://www.postimg.com/image/22000/21744.jpg


http://www.postimg.com/image/22000/21745.jpg


ScreenCaps:

http://www.postimg.com/image/22000/21746.jpg


Machete (
2010) R5 XviD-MAX Torrent Free Download

http://thepiratebay.org/user/extremezone/0/7


http://www.fxware.com/forex-currency/add-on/?a=24&up_l=fr

Posted in: Uncategorized