Prince of Persia The Sands of Time (2010)

Posted on novembre 22, 2010

0


Prince of Persia The Sands of Time (2010)
picture 
 
 
Prince of Persia The Sands of Time (2010) DVDRip XviD-MAX

Format : AVI
Format/Info : Audio Video Interleave
File size :
1.37 GiB
Duration : 1h
51mn
Overall bit rate :
1 761 Kbps
Writing application : VirtualDubMod
1.5.10.2 (build 2542/release)
Writing library : VirtualDubMod build
2542/release
Original source form : MAX TORRENTZ
Copyright : SIGISMUNT

Video
ID :
0
Format : MPEG-
4 Visual
Format profile : AdvancedSimple@L
5
Format settings, BVOP : Yes
Format settings, QPel : No
Format settings, GMC : No warppoints
Format settings, Matrix : Default (MPEG)
Codec ID : XVID
Codec ID/Hint : XviD
Duration : 1h
51mn
Bit rate :
1 303 Kbps
Width :
624 pixels
Height :
256 pixels
Display aspect ratio : 2.40:1
Frame rate :
25.000 fps
Resolution :
24 bits
Colorimetry : 4:2:0
Scan type : Progressive
Bits/(Pixel*Frame) :
0.326
Stream size :
1.01 GiB (74%)
Writing library : XviD
1.2.1 (UTC 2008-12-04)

Audio
ID :
1
Format : AC-
3
Format/Info : Audio Coding
3
Codec ID : 2000
Duration : 1h
51mn
Bit rate mode : Constant
Bit rate :
448 Kbps
Channel(s) :
6 channels
Channel positions : Front: L C R, Surround: L R, LFE
Sampling rate :
48.0 KHz
Stream size :
356 MiB (25%)
Alignment : Split accross interleaves
Interleave, duration :
40 ms (1.00 video frame)
Interleave, preload duration :
500 ms

Uploader Note: Proper Source , clean audio/video (perfect sync)

http://www.imdb.com/title/tt0473075/


Screens:

http://www.postimg.com/image/20000/19801.jpg


http://www.postimg.com/image/20000/19802.jpg


http://www.postimg.com/image/20000/19803.jpg


http://www.postimg.com/image/20000/19804.jpg


ScreenCaps:

http://www.postimg.com/image/20000/19805.jpg


Posted in: Uncategorized