Resident Evil Afterlife (2010)

Posted on novembre 22, 2010

0


Resident Evil Afterlife (2010
picture 
Resident Evil Afterlife (2010) R5 XviD-MAX

Format : AVI
Format/Info : Audio Video Interleave
Format profile : OpenDML
File size :
1.36 GiB
Duration : 1h
32mn
Overall bit rate :
2 102 Kbps
Writing application : VirtualDubMod
1.5.10.2 (build 2542/release)
Writing library : VirtualDubMod build
2542/release
Original source form : MAX TORRENTZ
Copyright : SIGISMUNT

Video
ID :
0
Format : MPEG-
4 Visual
Format profile : AdvancedSimple@L
5
Format settings, BVOP : Yes
Format settings, QPel : No
Format settings, GMC : No warppoints
Format settings, Matrix : Custom
Codec ID : XVID
Codec ID/Hint : XviD
Duration : 1h
32mn
Bit rate :
1 649 Kbps
Width :
720 pixels
Height :
304 pixels
Display aspect ratio : 2.35:1
Frame rate :
25.000 fps
Resolution :
24 bits
Colorimetry : 4:2:0
Scan type : Progressive
Bits/(Pixel*Frame) :
0.301
Stream size :
1.07 GiB (78%)
Writing library : XviD
1.2.1 (UTC 2008-12-04)

Audio
ID :
1
Format : AC-
3
Format/Info : Audio Coding
3
Codec ID : 2000
Duration : 1h
32mn
Bit rate mode : Constant
Bit rate :
448 Kbps
Channel(s) :
6 channels
Channel positions : Front: L C R, Surround: L R, LFE
Sampling rate :
48.0 KHz
Stream size :
297 MiB (21%)
Alignment : Aligned on interleaves
Interleave, duration :
64 ms (1.60 video frames)
Interleave, preload duration :
192 ms

Sources: R
5 DVDRIP + AC3 Studio Line (perfect synced) sample is included - short message to
some epicfail groups - stop "stealing" r
5 dvds and use cam or ts audiodata(at least since
you are so popular maybe it's time to learn how to make a good synchronization/thanks)
Also it's very sad to see some kids giving 10/10 for a muffled oos audio line copy released by some wannabegroups...

http://www.imdb.com/title/tt1220634/


Screens:

http://www.postimg.com/image/23000/22225.jpg


http://www.postimg.com/image/23000/22226.jpg


http://www.postimg.com/image/23000/22227.jpg


http://www.postimg.com/image/23000/22228.jpg


http://www.postimg.com/image/23000/22229.jpg


ScreenCaps:

http://www.postimg.com/image/23000/22224.jpg


Posted in: Uncategorized