The Sorcerers Apprentice (2010)

Posted on novembre 22, 2010

0


The Sorcerers Apprentice (2010)
https://algeriatorrents.files.wordpress.com/2010/11/thesorcerersapprentice2010.png?w=204

The Sorcerers Apprentice (2010) DVDRip XviD-MAX

Format : AVI
Format/Info : Audio Video Interleave
Format profile : OpenDML
File size :
1.31 GiB
Duration : 1h
49mn
Overall bit rate :
1 722 Kbps
Writing application : VirtualDubMod
1.5.10.2 (build 2542/release)
Writing library : VirtualDubMod build
2542/release
Original source form : MAX TORRENTZ
Copyright : SIGISMUNT

Video
ID :
0
Format : MPEG-
4 Visual
Format profile : AdvancedSimple@L
5
Format settings, BVOP : Yes
Format settings, QPel : No
Format settings, GMC : No warppoints
Format settings, Matrix : Custom
Codec ID : XVID
Codec ID/Hint : XviD
Duration : 1h
49mn
Bit rate :
1 527 Kbps
Width :
720 pixels
Height :
304 pixels
Display aspect ratio : 2.35:1
Frame rate :
23.976 fps
Resolution :
24 bits
Colorimetry : 4:2:0
Scan type : Progressive
Bits/(Pixel*Frame) :
0.291
Stream size :
1.16 GiB (89%)
Writing library : XviD
1.2.1 (UTC 2008-12-04)

Audio
ID :
1
Format : MPEG Audio
Format version : Version
1
Format profile : Layer
3
Codec ID :
55
Codec ID/Hint : MP
3
Duration : 1h
49mn
Bit rate mode : Constant
Bit rate :
192 Kbps
Channel(s) :
2 channels
Sampling rate :
48.0 KHz
Resolution :
16 bits
Stream size :
150 MiB (11%)
Alignment : Aligned on interleaves
Interleave, duration :
522 ms (12.51 video frames)
Interleave, preload duration :
216 ms
Writing library : LAME
3.98.2

Screens:

http://www.postimg.com/image/24000/23913.jpg

http://www.postimg.com/image/24000/23914.jpg


http://www.postimg.com/image/24000/23915.jpg


http://www.postimg.com/image/24000/23916.jpg


ScreenCaps:

http://www.postimg.com/image/24000/23918.jpg

Posted in: Uncategorized