Telecharger Video frankie j feat. mannie fresh and chamillionaire that girl

Posted on janvier 5, 2011

0


Download frankie j feat. mannie fresh and chamillionaire that girl
Format                           : AVI
Format/Info                      : Audio Video Interleave
File size                        : 23.6 MiB
Duration                         : 3mn 58s
Overall bit rate                 : 830 Kbps
Writing application              : Lavf51.7.0

Video
ID                               : 0
Format                           : MPEG-4 Visual
Format profile                   : Simple@L1
Format settings, BVOP            : No
Format settings, QPel            : No
Format settings, GMC             : No warppoints
Format settings, Matrix          : Default (H.263)
Codec ID                         : DIVX
Codec ID/Info                    : Project Mayo
Codec ID/Hint                    : DivX 4
Duration                         : 3mn 57s
Bit rate                         : 691 Kbps
Width                            : 544 pixels
Height                           : 304 pixels
Display aspect ratio             : 16:9
Frame rate                       : 23.976 fps
Color space                      : YUV
Chroma subsampling               : 4:2:0
Bit depth                        : 8 bits
Scan type                        : Progressive
Compression mode                 : Lossy
Bits/(Pixel*Frame)               : 0.174
Stream size                      : 19.6 MiB (83%)
Writing library                  : Lavc51.28.0

Audio
ID                               : 1
Format                           : MPEG Audio
Format version                   : Version 1
Format profile                   : Layer 3
Mode                             : Joint stereo
Mode extension                   : MS Stereo
Codec ID                         : 55
Codec ID/Hint                    : MP3
Duration                         : 3mn 58s
Bit rate mode                    : Constant
Bit rate                         : 128 Kbps
Channel(s)                       : 2 channels
Sampling rate                    : 44.1 KHz
Compression mode                 : Lossy
Stream size                      : 3.63 MiB (15%)
Alignment                        : Aligned on interleaves
Interleave, duration             : 26 ms (0.62 video frame)
Interleave, preload duration     : 522 ms
Writing library                  : LAME3.96

Posted in: Video